技术宅的结界

 找回密码
 立即注册→加入我们

QQ登录

只需一步,快速开始

搜索
热搜: 下载 VB C 实现 编写
查看: 2720|回复: 19
收起左侧

Tiara《LOVERS ~Tiara Collaborations Album~》[自抓WAV/整轨][华为]

[复制链接]

25

主题

114

帖子

1134

积分

用户组: 管理员

UID
113
精华
15
威望
31 点
宅币
854 个
贡献
29 次
宅之契约
0 份
在线时间
96 小时
注册时间
1970-1-1
发表于 2014-6-3 15:24:30 | 显示全部楼层 |阅读模式

欢迎访问技术宅的结界,请注册或者登录吧。

您需要 登录 才可以下载或查看,没有帐号?立即注册→加入我们

x



CD (2011/9/7)
ディスク枚数: 1
レーベル: Nippon Crown =music=
収録時間: 58 分
ASIN: B005C8CVRU
EAN: 4988007246576

素有"铃声女王"之称的创作型女歌手Tiara在9月7日携超强力合作专辑『LOVERS ~Tiara Collaborations Album~』与歌迷们见面。专辑中包括之前已经发行的配信歌曲及作为客串身份参与其他艺人歌曲演唱的音源,值得一提的是收录一首新曲「時をとめて feat.WISE」等歌曲在内的共12首歌曲收录的超级豪华企划制作。

300万ダウンロードの歌姫Tiara、初のfeat.アルバムをリリース!!
既発売配信大ヒット4曲と、7/6発売最新シングル「時をとめて feat. WISE / ホントのキモチ」を含む4曲の新曲
、そして他社アーティストへの客演音源4曲を収録した超スペシャル企画盤!!
数々の金字塔を作り上げてきた歌姫Tiara。そんなTiaraが恋する全ての女性に贈る恋愛バイブルとも言える総集編アルバムが遂に完成!!
曲目:
1. さよならをキミに... feat.Spontania
2. 時をとめて feat.WISE
3. キミがおしえてくれた事 feat.SEAMO
4. もう誰にもとられたくない feat.So'Fly
5. ありがとう。愛してた人 feat.Spontania
6. やさしい気持ち~言えないまま~ feat.KEN THE 390
7. Love is… with KG
8. Sweet Love with 光永亮太
9. Re:逢いたい feat.Tiara / エイジア エンジニア
10. いとしすぎて duet with Tiara / KG
11. Slow Down feat.Tiara / SEAMO
12. 君がいた冬 with Tiara / K.J.

log:
  1. Exact Audio Copy V1.0 beta 3 from 29. August 2011

  2. EAC 抓取日志文件从2. 六月 2014, 0:35

  3. Tiara / LOVERS ~Tiara Collaborations Album~

  4. 使用驱动器  :HL-DT-STDVDRAM GU71N   Adapter: 0  ID: 0

  5. 读取模式      : 可靠Secure
  6. 使用精确流     : 是
  7. 清空音频缓存    : 否
  8. 使用 C2 指示器 : 否

  9. 读取偏移校正:               : 102
  10. 读取 Lead-In 和 Lead-Out : 否
  11. 用静音填充抓取中丢失偏移的采样       : 是
  12. 去除首尾静音块               : 否
  13. 在CRC 计算中使用了空样本       : 是
  14. 已用接口                  : Win NT 及 2000 本地 Win32 接口

  15. 所用输出模式: : 内部 WAV 函数
  16. 样本格式    : 44.100 Hz; 16 Bit; 立体声


  17. 已抓取 CD 的 TOC

  18.      音轨 |    起始    |    长度    |  起始扇区  |  结束扇区  
  19.     --------------------------------------------
  20.       1 |  0:00.00 |  5:11.26 |      0 |  23350
  21.       2 |  5:11.26 |  4:02.17 |  23351 |  41517
  22.       3 |  9:13.43 |  5:02.24 |  41518 |  64191
  23.       4 | 14:15.67 |  5:28.69 |  64192 |  88860
  24.       5 | 19:44.61 |  4:00.14 |  88861 | 106874
  25.       6 | 23:45.00 |  4:02.17 | 106875 | 125041
  26.       7 | 27:47.17 |  6:00.23 | 125042 | 152064
  27.       8 | 33:47.40 |  4:26.45 | 152065 | 172059
  28.       9 | 38:14.10 |  5:30.02 | 172060 | 196811
  29.      10 | 43:44.12 |  4:32.37 | 196812 | 217248
  30.      11 | 48:16.49 |  4:54.16 | 217249 | 239314
  31.      12 | 53:10.65 |  4:19.65 | 239315 | 258804


  32. 范围状态及错误

  33. 已选择范围

  34.      文件名 C:\Users\Administrator\Desktop\Tiara - LOVERS ~Tiara Collaborations Album~.wav

  35.      峰值电平 95.9 %
  36.      抓取速度 12.1 X
  37.      范围质量 99.9 %
  38.      复制 CRC F195D91A
  39.      复制成功

  40. 没有错误发生

  41. 状态报告结尾

  42. ---- CUETools DB Plugin V2.1.3

  43. [CTDB TOCID: .56_LyGtuwBLk3gSCoWkfZTTur0-] found, Submit result: .56_LyGtuwBLk3gSCoWkfZTTur0- has been confirmed
  44. [a39ea0a9] (7/7) Accurately ripped
复制代码
下载地址:
游客,如果您要查看本帖隐藏内容请回复


*0xAA55站SysOp
任何疑问,直接联系A5

0

主题

1

帖子

16

积分

用户组: 初·技术宅

UID
533
精华
0
威望
1 点
宅币
13 个
贡献
0 次
宅之契约
0 份
在线时间
0 小时
注册时间
2014-10-19
发表于 2014-10-19 20:26:58 | 显示全部楼层
kankan xiexie fenxiang~

1007

主题

2232

帖子

5万

积分

用户组: 管理员

一只技术宅

UID
1
精华
199
威望
263 点
宅币
16684 个
贡献
33359 次
宅之契约
0 份
在线时间
1595 小时
注册时间
2014-1-26
发表于 2014-11-11 18:15:23 | 显示全部楼层
我讨厌华为网盘。。。

0

主题

1

帖子

8

积分

用户组: 初·技术宅

UID
677
精华
0
威望
1 点
宅币
5 个
贡献
0 次
宅之契约
0 份
在线时间
0 小时
注册时间
2015-2-12
发表于 2015-2-12 11:37:35 | 显示全部楼层
Thank you very much. i look for it for a long time

0

主题

1

帖子

13

积分

用户组: 初·技术宅

UID
809
精华
0
威望
0 点
宅币
12 个
贡献
0 次
宅之契约
0 份
在线时间
1 小时
注册时间
2015-4-15
发表于 2015-4-16 11:14:48 | 显示全部楼层
我想要这个资源XXXD

0

主题

1

帖子

8

积分

用户组: 初·技术宅

UID
1010
精华
0
威望
1 点
宅币
5 个
贡献
0 次
宅之契约
0 份
在线时间
0 小时
注册时间
2015-8-2
发表于 2015-8-2 04:56:34 | 显示全部楼层
感谢楼主的分享

0

主题

1

帖子

8

积分

用户组: 初·技术宅

UID
1703
精华
0
威望
1 点
宅币
5 个
贡献
0 次
宅之契约
0 份
在线时间
0 小时
注册时间
2016-5-18
发表于 2016-5-18 20:31:56 | 显示全部楼层
下載看看 這張是好聽的專輯

0

主题

2

帖子

11

积分

用户组: 初·技术宅

UID
1817
精华
0
威望
1 点
宅币
7 个
贡献
0 次
宅之契约
0 份
在线时间
0 小时
注册时间
2016-7-10
发表于 2016-7-10 16:06:38 | 显示全部楼层
Thank You I was looking for this

0

主题

2

帖子

11

积分

用户组: 初·技术宅

UID
1817
精华
0
威望
1 点
宅币
7 个
贡献
0 次
宅之契约
0 份
在线时间
0 小时
注册时间
2016-7-10
发表于 2016-7-10 16:52:23 | 显示全部楼层
it can't download anymore

0

主题

3

帖子

14

积分

用户组: 初·技术宅

UID
2127
精华
0
威望
1 点
宅币
9 个
贡献
0 次
宅之契约
0 份
在线时间
0 小时
注册时间
2016-12-17
发表于 2016-12-17 22:10:58 | 显示全部楼层
FKING YOU. HOPE ITS WORL

0

主题

3

帖子

14

积分

用户组: 初·技术宅

UID
2127
精华
0
威望
1 点
宅币
9 个
贡献
0 次
宅之契约
0 份
在线时间
0 小时
注册时间
2016-12-17
发表于 2016-12-17 22:11:24 | 显示全部楼层
FKING THX u hope it is work la diu nai

0

主题

3

帖子

14

积分

用户组: 初·技术宅

UID
2127
精华
0
威望
1 点
宅币
9 个
贡献
0 次
宅之契约
0 份
在线时间
0 小时
注册时间
2016-12-17
发表于 2016-12-17 22:11:45 | 显示全部楼层


我讨厌华为网盘。。。

0

主题

1

帖子

8

积分

用户组: 初·技术宅

UID
3044
精华
0
威望
1 点
宅币
5 个
贡献
0 次
宅之契约
0 份
在线时间
0 小时
注册时间
2017-11-4
发表于 2017-11-4 14:43:22 | 显示全部楼层
谢谢楼主分享

1

主题

85

帖子

91

积分

用户组: 小·技术宅

UID
3026
精华
0
威望
1 点
宅币
3 个
贡献
0 次
宅之契约
0 份
在线时间
6 小时
注册时间
2017-10-31
发表于 2017-11-8 08:26:30 | 显示全部楼层
后面跟一个华为,啥东西

0

主题

1

帖子

15

积分

用户组: 初·技术宅

UID
3480
精华
0
威望
2 点
宅币
10 个
贡献
0 次
宅之契约
0 份
在线时间
0 小时
注册时间
2018-2-20
发表于 2018-2-20 21:57:57 | 显示全部楼层
thanks you very much

0

主题

1

帖子

15

积分

用户组: 初·技术宅

UID
3660
精华
0
威望
2 点
宅币
10 个
贡献
0 次
宅之契约
0 份
在线时间
0 小时
注册时间
2018-4-3
发表于 2018-4-3 00:22:16 | 显示全部楼层
谢谢楼主分享

0

主题

1

帖子

15

积分

用户组: 初·技术宅

UID
4007
精华
0
威望
2 点
宅币
10 个
贡献
0 次
宅之契约
0 份
在线时间
0 小时
注册时间
2018-7-1
发表于 2018-7-1 18:48:13 | 显示全部楼层
謝謝 我找好久了

0

主题

1

帖子

15

积分

用户组: 初·技术宅

UID
4279
精华
0
威望
2 点
宅币
10 个
贡献
0 次
宅之契约
0 份
在线时间
0 小时
注册时间
2018-9-15
发表于 2018-9-15 10:34:14 | 显示全部楼层
3Q~~~~~~~~









           

0

主题

1

帖子

15

积分

用户组: 初·技术宅

UID
4386
精华
0
威望
2 点
宅币
10 个
贡献
0 次
宅之契约
0 份
在线时间
0 小时
注册时间
2018-10-19
发表于 2018-10-19 19:29:19 | 显示全部楼层
Thank youuuuu <3

0

主题

1

帖子

9

积分

用户组: 初·技术宅

UID
4432
精华
0
威望
0 点
宅币
8 个
贡献
0 次
宅之契约
0 份
在线时间
0 小时
注册时间
2018-11-3
发表于 2018-11-3 09:34:53 | 显示全部楼层
非常感谢
回复

使用道具 举报

本版积分规则

QQ|申请友链|Archiver|手机版|小黑屋|技术宅的结界 ( 滇ICP备16008837号|网站地图

GMT+8, 2018-11-20 13:41 , Processed in 0.116548 second(s), 14 queries , Gzip On, Memcache On.

Powered by Discuz! X3.2

© 2001-2013 Comsenz Inc.

快速回复 返回顶部 返回列表